Всегда рабочее зеркало без VPN и Proxy просто перед .vidak.icu напиши любое слово или цифру, Пример http://c224.vidak.icu

MVO

Лицензия

1 сезон

1

1 сезон

iTunes

1 сезон

13

1 сезон

Deluxe

pack

Рекомендуем

Пиратка

30

ВАЖНО

RePack

MK11

RePack

jed

RePack

fifa19

RePack

RDR2

RePack

NEED FOR SPEED™ PAYBACK

Кинопоиск HD

6 сезон

 Острые козырьки 6 сезон

Все сериалы

все сериалы на PB.wtf

RePack

FAR CRY 5

Anonymous, нам критически не хватает 2100 руб. на оплату серверов и переферии за МАЙ, помоги нам пожалуйста, вся надежда только на тебя. В благодарность мы отключим тебе всю рекламу на сайте!

×
  
Magnet ссылка

Заключение / Сезон: 1 / Серии: 1-8 из 8 (Сергей Попов (II) [2022, Детектив, WEB-DL 1080p] uiy.vidak.icu

Заключение через торрент uiy.vidak.icu

Раздают: 10 [ 5 MB/s ] Качают: 10 [ 4 MB/s ]
Размер: 14.75 GB | Добавлен: 3 д. назад | Торрент скачан:46 раз
Смотреть онлайн Заключение | Скачать    Ребята, помогите собрать деньги на оплату серверов!!!

18-06-2022 10:26 Заключение Скачать торрент  

Заключение
Год выпуска: 2022
Страна: Россия
Жанр: Детектив
Продолжительность: ~ 00:49:00 серия
Перевод: Не требуется
Субтитры: Русские

Режиссер: Сергей Попов (II)



В ролях: Виктория Исакова, Дмитрий Куличков, Виталий Кищенко, Михаил Ширяев, Владислав Ветров, Маргарита Дьяченкова, Сергей Горошко, Алексей Розин, Мария Смольникова, Евгений Петров (IV), Евгений Харитонов (II), Константин Шелестун, Назир Жуков, Сергей Каплунов, Анастасия Лебедева, Платон Саввин, Александр Орав, Андрей Курносов, Жанна Пугачёва, Валентина Ляпина, Артём Кобзев, Денис Ткачёв, Александр Обманов, Андрей Межулис, Елена Попова, Константин Гвоздков, Виталий Филипповых, Егор Кенжаметов, Мария Леонова, Александр Фисенко, Денис Беспалый, Валерия Минина, Екатерина Фрисс, Мария Бердинских, Алексей Дякин

Описание: Вера Елагина – блестящий хирург, специализирующийся на плановой абдоминальной хирургии. Профессия научила её быть решительной и жесткой, уметь прятать свои чувства. Перфекционизм Веры относится к работе, одежде, семье. Она всегда идеально выглядит, но ее близкие и друзья не могут соответствовать её завышенным требованиям. В итоге, муж Веры ушел, она живет с дочерью-подростком. Однажды Вера узнает, что при странных обстоятельствах погибла ее пациентка - 16-летняя Зоя. В свое время Вера по подложным рецептам помогала Зое, перенесшей операцию, приобрести опиоидные анальгетики. Из-за начатого расследования подлог всплывает, против Веры возбуждается дело о распространении наркотических средств. Пытаясь разобраться, что произошло с ее пациенткой, Вера начинает сотрудничать со следователем Пахомовым, параллельно помогая капитану в раскрытии еще одного преступления. Тем временем, тучи над самой Верой сгущаются, суд дает ей реальный срок: четыре года с запретом на профессию. Однако, прокуратура предлагает её сделку: отбывать альтернативное наказание в качестве судмедэксперта в Следственном комитете. Вере надевают на ногу браслет, и теперь Пахомов становится ее надзирателем.

Качество: WEB-DL 1080p
Формат: MKV

Видео: MPEG-4 AVC, ~ 6000 Кбит/с, 1920x1080, 25 кадр/с
Аудио: 48.0 kHz, AC3 Dolby Digital, 2/0 (L,R) ch, ~ 192 kbps
скриншот  скриншот  скриншот  скриншот  

General
Unique ID : 226896039403627078311077948591880946639 (0xAAB296708F6426989A90EC114C0A43CF)
Complete name : G:\Zakluchenie.S01.2022.WEB-DL.(1080p).ExKinoRay\Zakluchenie.S01.E03.2022.WEB-DL.(1080p).ExKinoRay.mkv
Format : Matroska
Format version : Version 4 / Version 2
File size : 2.12 GiB
Duration : 49 min 4 s
Overall bit rate : 6 185 kb/s
Encoded date : UTC 2022-06-19 18:06:18
Writing application : mkvmerge v6.9.1 ('Blue Panther') 64bit built on Apr 18 2014 18:23:38
Writing library : libebml v1.3.0 + libmatroska v1.4.1

Video
ID : 1
Format : AVC
Format/Info : Advanced Video Codec
Format profile : [email protected]
Format settings : CABAC / 4 Ref Frames
Format settings, CABAC : Yes
Format settings, RefFrames : 4 frames
Codec ID : V_MPEG4/ISO/AVC
Duration : 49 min 4 s
Bit rate : 6 000 kb/s
Width : 1 920 pixels
Height : 1 080 pixels
Display aspect ratio : 16:9
Frame rate mode : Constant
Frame rate : 25.000 FPS
Color space : YUV
Chroma subsampling : 4:2:0
Bit depth : 8 bits
Scan type : Progressive
Bits/(Pixel*Frame) : 0.116
Stream size : 2.01 GiB (95%)
Writing library : x264 core 157
Encoding settings : cabac=1 / ref=4 / deblock=1:0:0 / analyse=0x3:0x133 / me=umh / subme=10 / psy=1 / psy_rd=1.00:0.00 / mixed_ref=1 / me_range=24 / chroma_me=1 / trellis=2 / 8x8dct=1 / cqm=0 / deadzone=21,11 / fast_pskip=1 / chroma_qp_offset=-2 / threads=34 / lookahead_threads=5 / sliced_threads=0 / nr=0 / decimate=1 / interlaced=0 / bluray_compat=0 / stitchable=1 / constrained_intra=0 / bframes=8 / b_pyramid=2 / b_adapt=2 / b_bias=0 / direct=3 / weightb=1 / open_gop=0 / weightp=2 / keyint=250 / keyint_min=25 / scenecut=40 / intra_refresh=0 / rc_lookahead=60 / rc=2pass / mbtree=1 / bitrate=6000 / ratetol=1.0 / qcomp=0.60 / qpmin=0 / qpmax=69 / qpstep=4 / cplxblur=20.0 / qblur=0.5 / vbv_maxrate=6600 / vbv_bufsize=24000 / nal_hrd=none / filler=0 / ip_ratio=1.40 / aq=1:1.00
Default : Yes
Forced : No

Audio
ID : 2
Format : AC-3
Format/Info : Audio Coding 3
Codec ID : A_AC3
Duration : 49 min 4 s
Bit rate mode : Constant
Bit rate : 192 kb/s
Channel(s) : 2 channels
Channel positions : Front: L R
Sampling rate : 48.0 kHz
Frame rate : 31.250 FPS (1536 SPF)
Bit depth : 16 bits
Compression mode : Lossy
Stream size : 67.4 MiB (3%)
Language : Russian
Service kind : Complete Main
Default : Yes
Forced : No

Text
ID : 3
Format : UTF-8
Codec ID : S_TEXT/UTF8
Codec ID/Info : UTF-8 Plain Text
Language : Russian
Default : No
Forced : No

Раздача ведётся путём добавления новых серий, при каждом добавлении создаётся новый торрент. Чтобы начать докачку новой серии, пользователям необходимо сделать следующее:
- Остановить скачивание.
- Удалить старый торрент у себя из клиента (старые серии удалять не надо).
- Скачать новый торрент и запустить его у себя в клиенте вместо старого, при этом указать клиенту путь в старую папку куда и должно происходить скачивание новых серий.
Ваш клиент при этом должен произвести хеширование (проверку) старой папки (если не производит сам - помогите ему сделать это), и будет докачивать только те серии которых у вас ещё нет. Старые серии при этом не удаляются, а продолжают раздаваться!
uiy.vidak.icu



Скачать Заключение через торрент https://i120.fastpic.org/big/2022/0614/49/5f84b4a4940aab5dd641380e38a96249.jpg Скачать, смотреть онлайн Заключение бесплантно в хорошем качестве Описание: Вера Елагина – блестящий хирург, специализирующийся на плановой абдоминальной хирургии. Профессия научила её быть решительной и ... 7.8 10 9
Торрент: Зарегистрирован [2022-06-24 02:50] · скачан: 46 раз
Статус: √ проверено
Размер: 14.75 GB
Как cкачать? Как скачать Заключение через торрент | UTorrent

% Раздел Тема Автор DL S | L
Наши сериалы [ 5.03 GB ] Заключение / Сезон: 1 / Серии: 1-8 из 8 [2022 SATRip] bober100 Скачать
26 | 8
Наши сериалы [ 4.94 GB ] Заключение / Сезон: 1 / Серии: 1-8 из 8 [2022 WEBRip] bober100 Скачать
7 | 4

28-11-2019 20:33  

Отключить всю рекламу на сайте

    Дорогой пользователь! Огромная просьба, поблагодарите релизера, оцените раздачу и оставьте свои комментарий, если Вы скачали Заключение через торрент бесплатно!
    Комментировать посты могут только пользователи прошедшие не сложную регистрацию
    Показать сообщения:    

    Заключение через торрент
    Скачать бесплатно Заключение
    Заключение скачать торрент
    Заключение смотреть онлайн
    Cкачать фильм Заключение бесплатно
    Заключение скачать торрент в хорошем качестве
    Заключение смотреть онлайн бесплатно в хорошем качестве


    Вы не можете начинать темы
    Вы не можете отвечать на сообщения
    Вы не можете редактировать свои сообщения
    Вы не можете удалять свои сообщения
    Вы не можете голосовать в опросах
    Вы не можете прикреплять файлы к сообщениям
    Вы можете скачивать файлы